#TITLE:Ghost Revival;
#SUBTITLE:SDO China lv17 - [N]hok[Q] Simfile;
#ARTIST:LED;
#TITLETRANSLIT:;
#SUBTITLETRANSLIT:;
#ARTISTTRANSLIT:;
#CREDIT:[N]hok[Q];
#BANNER:bn-ghostrevival.png;
#BACKGROUND:bg-ghostrevival.png;
#LYRICSPATH:;
#CDTITLE:cd-ghostrevival.png;
#MUSIC:Ghost Revival.mp3;
#OFFSET:-0.371;
#SAMPLESTART:15.274;
#SAMPLELENGTH:11.918;
#SELECTABLE:YES;
#DISPLAYBPM:148.000;
#BPMS:0.000=148.003,12.000=147.996,13.000=148.003,14.000=147.996,15.000=148.003,16.000=147.996,17.000=148.003,18.000=147.996,19.000=148.003,20.000=147.996,21.000=148.003,22.000=147.996,23.000=148.003,24.000=147.996,25.000=148.003,27.000=147.996,28.000=148.003,29.000=147.996,30.000=148.003,31.000=147.996,32.000=148.003,33.000=147.996,34.000=148.003,36.000=147.996,37.000=148.003,38.000=147.996,39.000=148.003,40.000=147.996,41.000=148.003,43.000=147.996,44.000=148.003,45.000=147.996,46.000=148.003,47.000=147.996,48.000=148.003,49.000=147.996,50.000=148.003,52.000=147.996,53.000=148.003,54.000=147.996,55.000=148.003,56.000=147.996,57.000=148.003,58.000=147.996,59.000=148.003,60.000=147.996,61.000=148.003,62.000=147.996,63.000=148.003,64.000=147.996,65.000=148.003,66.000=147.996,67.000=148.003,68.000=147.996,69.000=148.003,70.000=147.996,71.000=148.003,72.000=147.996,73.000=148.003,74.000=147.996,75.000=148.003,76.000=147.996,77.000=148.003,78.000=147.996,79.000=148.003,80.000=147.996,81.000=148.003,82.000=147.996,83.000=148.003,84.000=147.996,85.000=148.003,86.000=147.996,87.000=148.003,88.000=147.996,89.000=148.003,90.000=147.996,91.000=148.003,92.000=147.996,93.000=148.003,94.000=147.996,95.000=148.003,96.000=147.996,97.000=148.003,98.000=147.996,99.000=148.003,100.000=147.996,101.000=148.003,102.000=147.996,103.000=148.003,104.000=147.996,105.000=148.003,106.000=147.996,107.000=148.003,108.000=147.996,109.000=148.003,110.000=147.996,111.000=148.003,112.000=147.996,113.000=148.003,114.000=147.996,115.000=148.003,116.000=147.996,117.000=148.003,118.000=147.996,119.000=148.003,120.000=147.996,121.000=148.003,122.000=147.996,123.000=148.003,124.000=147.996,125.000=148.003,126.000=147.996,127.000=148.003,128.000=147.996,129.000=148.003,130.000=147.996,131.000=148.003,132.000=147.996,133.000=148.003,134.000=147.996,135.000=148.003,136.000=147.996,137.000=148.003,138.000=147.996,139.000=148.003,140.000=147.996,141.000=148.003,142.000=147.996,143.000=148.003,144.000=147.996,145.000=148.003,146.000=147.996,147.000=148.003,148.000=147.996,149.000=148.003,150.000=147.996,151.000=148.003,152.000=147.996,153.000=148.003,154.000=147.996,155.000=148.003,156.000=147.996,157.000=148.003,158.000=147.996,159.000=148.003,160.000=147.996,161.000=148.003,162.000=147.996,163.000=148.003,164.000=147.996,165.000=148.003,166.000=147.996,167.000=148.003,168.000=147.996,169.000=148.003,170.000=147.996,171.000=148.003,172.000=147.996,173.000=148.003,174.000=147.996,175.000=148.003,176.000=147.996,177.000=148.003,178.000=147.996,179.000=148.003,180.000=147.996,181.000=148.003,182.000=147.996,183.000=148.003,184.000=147.996,185.000=148.003,186.000=147.996,187.000=148.003,188.000=147.996,189.000=148.003,190.000=147.996,191.000=148.003,192.000=147.996,193.000=148.003,194.000=147.996,195.000=148.003,196.000=147.996,197.000=148.003,198.000=147.996,199.000=148.003,200.000=147.996,201.000=148.003,202.000=147.996,203.000=148.003,204.000=147.996,205.000=148.003,206.000=147.996,207.000=148.003,208.000=147.996,209.000=148.003,210.000=147.996,211.000=148.003,212.000=147.996,213.000=148.003,214.000=147.996,215.000=148.003,216.000=147.996,217.000=148.003,218.000=147.996,219.000=148.003,220.000=147.996,221.000=148.003,222.000=147.996,223.000=148.003,224.000=147.996,225.000=148.003,226.000=147.996,227.000=148.003,228.000=147.996,229.000=148.003,230.000=147.996,231.000=148.003,232.000=147.996,233.000=148.003,234.000=147.996,235.000=148.003,236.000=147.996,237.000=148.003,238.000=147.996,239.000=148.003,240.000=147.996,241.000=148.003,242.000=147.996,243.000=148.003,244.000=147.996,245.000=148.003,246.000=147.996,247.000=148.003,248.000=147.996,249.000=148.003,250.000=147.996,251.000=148.003,252.000=147.996,253.000=148.003,254.000=147.996,255.000=148.003,256.000=147.996,257.000=148.003,258.000=147.996,259.000=148.003,260.000=147.996,261.000=148.003,262.000=147.996,263.000=148.003,264.000=147.996,265.000=148.003,266.000=147.996,267.000=148.003,268.000=147.996,269.000=148.003,270.000=147.996,271.000=148.003,272.000=147.996,273.000=148.003,274.000=147.996,275.000=148.003,276.000=147.996,277.000=148.003,278.000=147.996,279.000=148.003,280.000=147.996,281.000=148.003,282.000=147.996,283.000=148.003,284.000=147.996,285.000=148.003,286.000=147.996,287.000=148.003,288.000=147.996,289.000=148.003,290.000=147.996,291.000=148.003,292.000=147.996,293.000=148.003,294.000=147.996,295.000=148.003,296.000=147.996,297.000=148.003,298.000=147.996,299.000=148.003,300.000=147.996,301.000=148.003,302.000=147.996,303.000=148.003,304.000=147.996,305.000=148.003,306.000=147.996,307.000=148.003,308.000=147.996,309.000=148.003;
#STOPS:;
#BGCHANGES:;
// cache tags:
#FIRSTBEAT:0.000;
#LASTBEAT:299.750;
#SONGFILENAME:Songs/SDO pack 5/Ghost Revival/Ghost Revival.sm;
#HASMUSIC:1;
#HASBANNER:1;
#MUSICLENGTH:126.099;
// end cache tags

//---------------dance-single - ----------------
#NOTES:
     dance-single:
     :
     Hard:
     17:
     1.000,1.000,1.000,0.063,1.000,1092.000,259.000,8.000,0.000,26.000:
0220
0000
0000
0000
0000
0000
0000
0330
,
1000
0000
0010
0100
0001
0000
0100
0010
0100
0010
0100
0000
0001
0000
0100
0010
,
1000
0010
1000
0010
1000
0010
0001
0000
0001
1000
0010
0100
0001
1000
0010
0100
,
1000
0010
0100
0010
0001
0000
0100
0010
0100
0010
0100
0010
1000
0000
0001
0000
,
2002
0000
0000
0000
0000
0000
0000
3003
,
1000
0000
0010
0100
0001
0000
1000
0010
1000
0010
1000
0100
0001
0000
1000
0010
,
0001
0100
0001
0010
0001
0100
1000
0000
0010
1000
0010
0100
0010
0100
0010
0100
,
1000
0000
0010
0100
0001
0000
0100
0001
0100
0001
0100
0010
1000
0010
1000
0010
,
0100
0010
2002
0000
0000
0000
0000
0000
0000
0000
0000
0000
0000
0000
3003
0000
,
1111
0000
0000
0000
0000
0000
0000
0000
0000
0000
0000
0000
0000
0000
0000
0000
0000
0000
0000
0000
0000
0000
0000
0000
1000
0000
0100
0000
0010
0000
0001
0000
0010
0000
0100
0000
1000
0000
0000
0010
0000
0000
1000
0000
0000
0010
0000
0000
,
1001
0010
0001
0010
1001
0010
0001
0100
1010
0100
0010
0100
1010
0100
0001
0100
,
1010
0100
0001
0100
1010
0100
0001
0100
1010
0001
0100
0010
1001
0100
0010
0001
,
1010
0100
0010
0100
1010
0100
0010
0100
1001
0100
0001
0100
1001
0100
0001
0100
,
1001
0010
0001
0010
1001
0010
0001
0010
1001
0100
0010
1100
1001
0100
1010
0100
,
1001
0010
0001
0010
1001
0010
0001
0100
1010
0100
0010
0100
1010
0100
0001
0100
,
1010
0100
0001
0100
1010
0100
0001
0100
1010
0001
0100
0010
1001
0100
0010
0001
,
1010
0100
0010
0100
1010
0100
0010
0100
1001
0100
0001
0100
1001
0100
0001
0100
,
1001
0010
1001
0010
0001
1010
0001
0010
1001
0100
0010
1100
0001
0100
1010
0100
,
1001
0010
1000
0100
0001
1000
0010
0100
0001
1000
0010
0100
0001
0010
1000
0001
,
0100
0001
1000
0010
0100
0001
0010
1000
0001
0100
0010
0001
1000
0010
0100
0001
,
1110
0001
0010
0001
1000
0010
0100
0001
1000
0010
0100
0001
1000
0010
0100
0001
,
1000
0000
0100
0000
0010
0000
0001
0000
0000
0100
0000
0000
0010
0000
0000
1000
0000
0000
0001
0000
0000
0100
0000
0000
0010
0000
0000
1000
0000
0000
0001
0000
0000
0100
0000
0000
0010
0000
0000
0001
0000
0000
0010
0000
0000
0100
0000
0000
,
1011
0100
0010
1000
0001
0100
0010
1000
0001
0100
0010
0001
1000
0010
0100
0001
,
1010
0001
0100
0010
1000
0100
0001
0100
0010
1000
0001
0100
0010
1000
0100
0010
,
1001
0100
0010
0100
0010
0100
0010
0100
1001
0100
0010
0100
0010
0100
1001
0010
,
1001
0100
1001
0010
0100
1001
0010
0100
1001
0100
0010
1001
0100
0010
1001
0100
,
1010
0001
0100
0010
1001
0100
0010
0100
1001
0100
0010
0001
1100
0010
0100
0001
,
1010
0001
0100
0010
1001
0100
0010
0100
1001
0100
0001
0100
1010
0100
0001
0010
,
1100
0010
0100
0001
1010
0100
0001
0100
1010
0100
0010
0001
1010
0100
0010
0001
,
1100
0010
0100
0001
1100
0010
0100
0001
1100
0001
0100
1010
1001
0100
1010
0100
,
1010
0001
0100
0010
1001
0100
0010
0100
1001
0100
0010
0001
1100
0010
0100
0001
,
1010
0001
0100
0010
1001
0100
0010
0100
1001
0100
0001
0100
1010
0100
0001
0010
,
1100
0010
0100
0001
1010
0100
0001
0100
1010
0100
0010
0001
1010
0100
0010
0001
,
1100
0010
1100
0001
0100
1010
0100
0001
1100
0001
0100
1010
0001
0100
1010
0001
,
1100
0010
0100
0010
1001
0100
0010
0001
1100
0010
0001
0010
1100
0010
0001
0010
,
1100
0100
0010
0010
1001
0100
0001
0010
1100
0010
0100
0001
1010
0001
0100
0010
,
1100
0001
0010
0001
1100
0010
0100
0000
1010
0000
0100
0010
1000
0100
0010
0100
,
1001
0000
0010
0000
0100
0000
1000
0000
0000
0001
0000
0000
1100
0000
0000
0010
0000
0000
0100
0000
0000
0010
0000
0000
1100
0000
0000
0100
0000
0000
0010
0000
0000
0100
0000
0000
1001
0000
0000
0100
0000
0000
0010
0000
0000
1100
0000
0000
,
1001
0010
0100
0010
1001
0100
0010
0001
1100
0010
0001
0010
1100
0010
0001
0010
,
1100
0100
0010
0010
1001
0100
0001
0010
1100
0010
0100
0001
1010
0001
0100
0010
,
1100
0001
0010
0001
1100
0010
0100
0001
1010
0001
0100
0010
1000
0100
0010
0100
,
1001
0000
0010
0000
0100
0000
1000
0000
0000
0001
0000
0000
0100
0000
0000
1010
0000
0000
0100
0000
0000
0010
0000
0000
1100
0000
0000
0100
0000
0000
1010
0000
0000
0100
0000
0000
0001
0000
0000
1100
0000
0000
0010
0000
0000
0100
0000
0000
,
1001
0010
1100
0001
1010
0100
1001
0100
,
1010
0100
1010
0001
1100
0001
1010
0100
,
1001
0100
1010
0001
1100
0001
1100
0010
,
1001
0000
0100
0000
0001
0000
0010
0000
1100
0000
0001
0000
0100
0000
0011
0001
,
1100
0010
0001
0010
1100
0010
0001
0010
1100
0010
0001
0010
1100
0010
0001
0010
,
1100
0001
0100
0010
1100
0001
0100
0010
1100
0001
0100
0010
1100
0001
0100
0010
,
1001
0100
0010
0100
1001
0100
0010
0100
1001
0100
0010
0100
1001
0100
1011
0100
,
1011
0001
1101
0010
0001
1101
0010
0100
1011
0001
0100
1011
0001
0100
1011
0100
,
1001
0100
0010
0100
1000
0100
0010
0001
1000
0010
1000
0100
1000
0001
0010
0100
,
0010
1000
0100
1000
0010
0100
1000
0001
0010
0100
1000
0010
0100
0001
1000
0010
,
1001
0000
0000
0100
0000
0000
0010
0000
0000
0100
0000
0000
1000
0000
0100
0000
0010
0000
0001
0000
0000
0100
0000
0000
1000
0000
0000
0010
0000
0000
1000
0000
0000
0100
0000
0000
1000
0000
0000
0001
0000
0000
0010
0000
0000
0100
0000
0000
,
0010
0000
0000
1000
0000
0000
0100
0000
0000
1000
0000
0000
0001
0000
0010
0000
0100
0000
1000
0000
0000
0001
0000
0000
0010
0000
0000
0100
0000
0000
1000
0000
0000
0010
0000
0000
0100
0000
0000
0001
0000
0000
1000
0000
0000
0010
0000
0000
,
1011
0100
0010
0100
1000
0100
0010
0001
1000
0010
1000
0100
1000
0001
0010
0100
,
1011
1000
0100
1000
0010
0100
1000
0001
0010
0100
1000
0010
0100
0001
1000
0010
,
1011
0000
0000
0100
0000
0000
0010
0000
0000
0100
0000
0000
1000
0000
0100
0000
0010
0000
1001
0000
0000
0100
0000
0000
1101
0000
0000
0010
0000
0000
1000
0000
0000
0100
0000
0000
1000
0000
0010
0000
0001
0000
0010
0000
0100
0000
1000
0000
,
0122
0000
0000
0000
,
1100
0000
0000
0000
0000
0000
0000
0000
0000
0000
0000
0000
0000
0000
0000
0000
0000
0000
0000
0000
0000
0000
0000
0000
1000
0000
0100
0000
1000
0000
0100
0000
1000
0000
0100
0000
1000
0000
0000
0100
0000
0000
1033
0000
0000
0010
0000
0000
,
1100
0010
0100
0010
1001
0100
0010
0001
1100
0010
0001
0010
1100
0010
0001
0010
,
1100
0100
0010
0010
1001
0100
0001
0010
1100
0010
0100
0001
1010
0001
0100
0010
,
1100
0001
0010
0001
1100
0010
0100
0000
1010
0000
0100
0010
1000
0100
0010
0100
,
1001
0000
0010
0000
0100
0000
1000
0000
0000
0001
0000
0000
1100
0000
0000
0010
0000
0000
0100
0000
0000
0010
0000
0000
1100
0000
0000
0100
0000
0000
0010
0000
0000
0100
0000
0000
1001
0000
0000
0100
0000
0000
0010
0000
0000
1100
0000
0000
,
1001
0010
0100
0010
1001
0100
0010
0001
1100
0010
0001
0010
1100
0010
0001
0010
,
1100
0100
0010
0010
1001
0100
0001
0010
1100
0010
0100
0001
1010
0001
0100
0010
,
1100
0001
0010
0001
1100
0010
0100
0001
1010
0001
0100
0010
1000
0100
0010
0100
,
1001
0000
0010
0000
0100
0000
1000
0000
0000
0001
0000
0000
0100
0000
0000
1010
0000
0000
0100
0000
0000
0010
0000
0000
1100
0000
0000
0100
0000
0000
1010
0000
0000
0100
0000
0000
0001
0000
0000
1100
0000
0000
0010
0000
0000
0100
0000
0000
,
1001
0010
0101
0010
1001
0100
1010
0001
1100
0010
0101
0010
1100
0010
0101
0010
,
1100
0100
0011
0010
1001
0100
1001
0010
1100
0010
1100
0001
1010
0001
0101
0010
,
1100
0001
0110
0001
1100
0010
0101
0000
1010
0000
0101
0010
1000
0100
0011
0100
,
1010
0010
1100
0001
1100
0010
0101
0010
1100
0100
0011
0100
1001
0100
0011
1100
,
1001
0010
1100
0010
1001
0100
1010
0001
1100
0010
0101
0010
1100
0010
1001
0010
,
1100
0100
0011
0010
1001
0100
1001
0010
1100
0010
1100
0001
1010
0001
0101
0010
,
1100
0001
0110
0001
1100
0010
0110
0001
1010
0001
1100
0010
1000
0100
0011
0100
,
1001
0000
0010
0000
0100
0000
1010
0000
0000
0001
0000
0000
0100
0000
0000
1010
0000
0000
0101
0000
0000
0010
0000
0000
1100
0000
0000
0100
0000
0000
0011
0000
0000
1100
0000
0000
0001
0000
0000
0100
0000
0000
1011
0000
0000
0100
0000
0000
,
0000
0000
0000
0000
,
0000
0000
0000
0000
,
0000
0000
0000
0000
;

//---------------dance-solo - ----------------
#NOTES:
     dance-solo:
     :
     Hard:
     17:
     1.000,1.000,1.000,0.063,1.000,1090.000,259.000,8.000,0.000,26.000:
002020
000000
000000
000000
000000
000000
000000
003030
,
100000
000000
000010
001000
000001
000000
001000
000010
001000
000010
001000
000000
000001
000000
010000
000010
,
100000
001000
100000
000010
100000
000100
000001
000000
000001
100000
000010
001000
000001
100000
000010
001000
,
100000
000010
001000
000010
000001
000000
001000
000010
010000
000010
001000
000010
100000
000000
000001
000000
,
200002
000000
000000
000000
000000
000000
000000
300003
,
100000
000000
000100
001000
000001
000000
100000
000010
100000
000010
100000
001000
000001
000000
100000
000010
,
000001
001000
000001
000010
000001
001000
100000
000000
000010
100000
000100
010000
000010
001000
000010
001000
,
100000
000000
000010
001000
000001
000000
001000
000001
010000
000001
001000
000100
100000
000010
001000
000100
,
200002
000000
000000
000000
000000
000000
000000
300003
,
101011
000000
000000
000000
000000
000000
000000
000000
000000
000000
000000
000000
000000
000000
000000
000000
000000
000000
000000
000000
000000
000000
000000
000000
100000
000000
001000
000000
000010
000000
000001
000000
000010
000000
001000
000000
100000
000000
000000
000010
000000
000000
100000
000000
000000
000010
000000
000000
,
100001
000010
000001
001000
100001
000100
000001
001000
100010
010000
000010
001000
100010
001000
000001
010000
,
100100
001000
000001
001000
100010
001000
000001
001000
100010
000001
001000
000010
100001
001000
000010
000001
,
100100
001000
000100
001000
100100
001000
000100
001000
100001
001000
000001
001000
100001
001000
000001
001000
,
100001
000010
000001
000010
100001
000100
000001
000100
100001
001000
000100
101000
100001
001000
100010
001000
,
100001
000010
000001
000010
100001
000010
000001
001000
100100
001000
000100
001000
100100
001000
000001
001000
,
100010
001000
000001
001000
100010
001000
000001
001000
100010
000001
010000
000010
100001
010000
000010
000001
,
100100
001000
000100
001000
100100
001000
000100
001000
100001
001000
000001
001000
100001
001000
000001
001000
,
100001
000010
100001
000010
000001
100010
000001
000010
100001
001000
000010
101000
000001
001000
100100
001000
,
100001
000100
100000
001000
000001
100000
000010
001000
000001
100000
000010
001000
000001
000010
100000
000001
,
001000
000001
100000
000100
001000
000001
000100
100000
000001
001000
000010
000001
100000
000010
010000
000001
,
110010
000001
000010
000001
100000
000010
001000
000001
100000
000010
001000
000001
100000
000010
001000
000001
,
100000
000000
001000
000000
000100
000000
000001
000000
000000
001000
000000
000000
000100
000000
000000
100000
000000
000000
000001
000000
000000
001000
000000
000000
000010
000000
000000
100000
000000
000000
000001
000000
000000
001000
000000
000000
000010
000000
000000
000001
000000
000000
000100
000000
000000
001000
000000
000000
,
100101
001000
000010
100000
000001
001000
000010
100000
000001
001000
000100
000001
100000
000010
001000
000001
,
100010
000001
001000
000010
100000
010000
000001
001000
000010
100000
000001
001000
000010
100000
001000
000010
,
100001
001000
000100
010000
000100
010000
000100
001000
100001
001000
000010
001000
000010
001000
100001
000010
,
100001
001000
100001
000100
001000
100001
000100
001000
100001
001000
000010
100001
001000
000010
100001
001000
,
100010
000001
001000
000100
100001
001000
000100
001000
100001
001000
000010
000001
101000
000010
001000
000001
,
100010
000001
001000
000100
100001
010000
000100
010000
100001
001000
000001
001000
100010
001000
000001
000010
,
101000
000100
001000
000001
100100
001000
000001
010000
100010
010000
000010
000001
100010
001000
000010
000001
,
101000
000100
001000
000001
101000
000100
001000
000001
101000
000001
001000
100010
100001
001000
100010
001000
,
100100
000001
010000
000100
100001
010000
000010
010000
100001
010000
000010
000001
101000
000010
001000
000001
,
100100
000001
001000
000100
100001
001000
000010
001000
100001
001000
000001
001000
100100
001000
000001
000010
,
101000
000010
001000
000001
100010
001000
000001
001000
100010
001000
000010
000001
100010
001000
000010
000001
,
101000
000100
101000
000001
001000
100100
001000
000001
101000
000001
001000
100010
000001
001000
100010
000001
,
101000
000010
001000
000010
100001
001000
000010
000001
101000
000100
000001
000100
101000
000100
000001
000100
,
101000
001000
000010
000010
100001
001000
000001
000010
101000
000100
001000
000001
100100
000001
001000
000010
,
101000
000001
000010
000001
101000
000010
001000
000000
100100
000000
001000
000100
100000
001000
000100
001000
,
100001
000000
000010
000000
010000
000000
100000
000000
000000
000001
000000
000000
110000
000000
000000
000010
000000
000000
001000
000000
000000
000010
000000
000000
101000
000000
000000
001000
000000
000000
000010
000000
000000
001000
000000
000000
100001
000000
000000
001000
000000
000000
000010
000000
000000
101000
000000
000000
,
100001
000010
001000
000010
100001
001000
000010
000001
101000
000100
000001
000100
101000
000100
000001
000100
,
101000
001000
000010
000010
100001
001000
000001
000010
101000
000100
001000
000001
100100
000001
001000
000010
,
101000
000001
000010
000001
101000
000010
001000
000001
100010
000001
001000
000100
100000
001000
000100
001000
,
100001
000000
000100
000000
001000
000000
100000
000000
000000
000001
000000
000000
001000
000000
000000
100010
000000
000000
001000
000000
000000
000010
000000
000000
101000
000000
000000
001000
000000
000000
100100
000000
000000
010000
000000
000000
000001
000000
000000
110000
000000
000000
000010
000000
000000
010000
000000
000000
,
100001
000010
101000
000001
100100
001000
100001
001000
,
100010
001000
100010
000001
101000
000001
100100
001000
,
100001
001000
100010
000001
101000
000001
101000
000100
,
100001
000000
001000
000000
000001
000000
000010
000000
101000
000000
000001
000000
001000
000000
000011
000001
,
101000
000100
000001
000100
101000
000100
000001
000010
101000
000010
000001
000010
101000
000010
000001
000010
,
101000
000001
001000
000010
101000
000001
001000
000010
101000
000001
001000
000010
101000
000001
001000
000010
,
100001
001000
000010
001000
100001
001000
000100
001000
100001
001000
000100
001000
100001
001000
100011
001000
,
100011
000001
101001
000010
000001
101001
000100
001000
100101
000001
001000
100011
000001
001000
100101
001000
,
100001
001000
000010
001000
100000
001000
000010
000001
100000
000010
100000
001000
100000
000001
000100
001000
,
000100
100000
001000
100000
000010
001000
100000
000001
000010
001000
100000
000010
001000
000001
100000
000010
,
100001
000000
000000
001000
000000
000000
000100
000000
000000
001000
000000
000000
100000
000000
001000
000000
000100
000000
000001
000000
000000
001000
000000
000000
100000
000000
000000
000010
000000
000000
100000
000000
000000
001000
000000
000000
100000
000000
000000
000001
000000
000000
000010
000000
000000
001000
000000
000000
,
000010
000000
000000
100000
000000
000000
001000
000000
000000
100000
000000
000000
000001
000000
000010
000000
001000
000000
100000
000000
000000
000001
000000
000000
000010
000000
000000
010000
000000
000000
100000
000000
000000
000010
000000
000000
010000
000000
000000
000001
000000
000000
100000
000000
000000
000100
000000
000000
,
100101
001000
000010
001000
100000
001000
000010
000001
100000
000010
100000
001000
100000
000001
000010
001000
,
100011
100000
001000
100000
000010
001000
100000
000001
000100
001000
100000
000100
001000
000001
100000
000010
,
100011
000000
000000
001000
000000
000000
000010
000000
000000
001000
000000
000000
100000
000000
001000
000000
000010
000000
100001
000000
000000
001000
000000
000000
101001
000000
000000
000100
000000
000000
100000
000000
000000
001000
000000
000000
100000
000000
000100
000000
000001
000000
000100
000000
001000
000000
100000
000000
,
001022
000000
000000
000000
,
101000
000000
000000
000000
000000
000000
000000
000000
000000
000000
000000
000000
000000
000000
000000
000000
000000
000000
000000
000000
000000
000000
000000
000000
100000
000000
010000
000000
001000
000000
000100
000000
001000
000000
010000
000000
100000
000000
000000
001000
000000
000000
100033
000000
000000
000010
000000
000000
,
101000
000010
001000
000010
100001
001000
000010
000001
101000
000100
000001
000100
101000
000100
000001
000100
,
101000
001000
000100
000100
100001
001000
000001
000010
101000
000010
001000
000001
100010
000001
001000
000010
,
101000
000001
000010
000001
101000
000010
001000
000000
100100
000000
001000
000100
100000
001000
000010
001000
,
100001
000000
000010
000000
001000
000000
100000
000000
000000
000001
000000
000000
101000
000000
000000
000010
000000
000000
001000
000000
000000
000010
000000
000000
101000
000000
000000
001000
000000
000000
000100
000000
000000
001000
000000
000000
100001
000000
000000
001000
000000
000000
000100
000000
000000
101000
000000
000000
,
100001
000010
001000
000010
100001
001000
000010
000001
110000
000010
000001
000010
110000
000010
000001
000010
,
101000
001000
000010
000010
100001
001000
000001
000100
101000
000100
001000
000001
100100
000001
001000
000010
,
101000
000001
000010
000001
101000
000010
010000
000001
100010
000001
010000
000010
100000
001000
000010
001000
,
100001
000000
000100
000000
001000
000000
100000
000000
000000
000001
000000
000000
001000
000000
000000
100100
000000
000000
001000
000000
000000
000100
000000
000000
101000
000000
000000
001000
000000
000000
100010
000000
000000
001000
000000
000000
000001
000000
000000
101000
000000
000000
000010
000000
000000
001000
000000
000000
,
100001
000010
001001
000010
100001
001000
100010
000001
101000
000010
001001
000100
101000
000100
001001
000100
,
101000
001000
000101
000100
100001
001000
100001
000010
101000
000010
101000
000001
100010
000001
001001
000010
,
101000
000001
001010
000001
101000
000010
001001
000000
100100
000000
001001
000100
100000
001000
000011
001000
,
100010
000010
101000
000001
101000
000010
001001
000010
101000
001000
000011
001000
100001
001000
000011
101000
,
100001
000100
101000
000100
100001
001000
100010
000001
101000
000010
001001
000010
101000
000010
100001
000010
,
101000
001000
000011
000010
100001
001000
100001
000010
110000
000010
110000
000001
100010
000001
000101
000010
,
101000
000001
001010
000001
101000
000010
001010
000001
100010
000001
110000
000010
100000
001000
000011
001000
,
100001
000000
000010
000000
001000
000000
100010
000000
000000
000001
000000
000000
001000
000000
000000
100010
000000
000000
001001
000000
000000
000010
000000
000000
101000
000000
000000
001000
000000
000000
000101
000000
000000
110000
000000
000000
000001
000000
000000
010000
000000
000000
100101
000000
000000
001000
000000
000000
,
000000
000000
000000
000000
,
000000
000000
000000
000000
,
000000
000000
000000
000000
;
